#TITLE:ERA;
#SUBTITLE:(GC phat MIX);
#ARTIST:TaQ feat. Good-Cool;
#TITLETRANSLIT:;
#SUBTITLETRANSLIT:;
#ARTISTTRANSLIT:;
#CREDIT:;
#BANNER:Era-Banner.png;
#BACKGROUND:Era-bg.png;
#LYRICSPATH:;
#CDTITLE:;
#MUSIC:Era MIX.mp3;
#MUSICLENGTH:99.456;
#OFFSET:1.720;
#SAMPLESTART:54.045;
#SAMPLELENGTH:12.000;
#SELECTABLE:YES;
#BPMS:0.000=90.000,20.000=180.000,52.000=90.000,84.000=180.000,196.000=90.000,212.000=70.000,213.000=50.000,214.000=30.000;
#STOPS:;
#BGCHANGES:;
#FIRSTBEAT:20.000;

#LASTBEAT:215.000;

#SONGFILENAME:Songs/ERICth The 3rd/Era mix/eramix.sm;

#HASMUSIC:1;

#HASBANNER:1;


//---------------dance-single - MANIAC----------------
#NOTES:
     dance-single:
     MANIAC:
     hard:
     8:
     0.477,0.674,0.141,0.111,0.186,307.000,14.000,11.000,0.000,0.000:





0000
0000
0000
0000
,
0000
0000
0000
0000
,
0000
0000
0000
0000
,
0000
0000
0000
0000
,
0000
0000
0000
0000
,
0010
0100
0001
0100
1000
0100
1000
0000
,
1000
0001
1000
0001
0000
0001
0000
0000
,
0010
0100
1000
0100
0001
0100
1000
0000
,
0001
1000
0001
1000
0000
1000
0000
0000
,
0100
1000
0010
0001
0010
1000
0100
0000
,
0100
0010
0100
0010
0000
0010
0000
0000
,
0100
0001
0010
0001
0100
1000
0100
0000
,
2000
0000
0000
0000
0000
0000
3000
0001
,
1000
0100
1000
0000
1000
0000
0100
0010
0100
0000
0100
0010
0000
0000
0000
0000
,
0010
1000
0010
0000
0010
1000
0010
1000
0001
0000
0001
1000
0000
0000
0000
0000
,
1000
0001
0000
0010
0000
0001
0000
0100
0001
0100
0001
0100
0001
0000
0000
0010
,
0001
0100
0001
0010
0001
0000
0010
0100
0000
0100
1000
0100
1000
0000
0000
0000
,
0010
1000
0100
0000
0010
0001
0100
0010
0100
0000
0000
0000
0000
0000
0000
0000
,
1000
0010
1000
0100
1000
0010
1000
0000
1000
1000
1000
0001
0001
0001
0000
0000
,
1100
0000
0100
0010
0001
0010
0100
0010
0100
0010
0000
0010
0000
0000
0000
0000
,
1000
0010
0001
0010
1000
0000
0000
0000
1000
0100
0001
0100
1000
0000
0000
0000
,
0101
0100
0010
0100
,
1100
0110
0011
0000
,
1000
0100
0010
0100
1000
0010
0001
0010
,
1000
0100
1000
0100
1000
0000
0000
0000
,
0001
0100
0010
0100
0001
0100
1000
0100
,
0001
0010
0001
0010
0001
0000
0000
0000
,
1000
0010
0010
0000
1000
0000
1000
0000
,
0001
0010
0010
0000
0001
0000
0001
0000
,
0010
1000
0010
1000
0100
1000
0100
1000
,
0100
0001
0100
0001
0100
1000
0100
1000
,
0100
0010
0100
0010
0001
0010
0001
0010
,
0100
1000
0100
1000
0001
1000
0001
1000
,
0010
1000
0010
1000
0001
0100
0001
0100
,
0010
0100
0010
0100
0010
0001
0010
0001
,
0010
1000
0010
1000
0010
0100
0010
0100
,
0010
0010
0010
0010
,
2010
0000
0001
0000
0001
0000
0001
3000
,
1002
0000
0100
0000
0100
0000
0100
0003
,
0201
0000
0010
0000
0010
0000
0010
0300
,
0120
0000
1000
0000
1000
0000
1000
0030
,
2010
0000
0001
0000
0001
0000
0001
3000
,
1002
0000
0100
0000
0100
0000
0100
0003
,
0201
0000
0010
0000
0010
0000
0010
0300
,
0120
0000
1000
0000
1000
0000
1000
0030
,
1000
0100
0000
1000
0100
0000
1000
0100
,
0010
0001
0000
0010
0001
0000
0010
0001
,
1000
0010
0000
1000
0010
0000
1000
0010
,
0100
0001
0000
0100
0001
0000
0100
0001
,
0100
0000
0001
0000
0100
0001
0100
0000
,
0100
0000
1000
0000
0100
1000
0100
0000
,
0010
0000
0100
0000
0010
0100
0010
0000
,
0100
0000
0010
0000
1000
0001
1000
0000
,
2020
0000
0000
0000
0000
3030
0000
0000;

//---------------dance-single - ANOTHER----------------
#NOTES:
     dance-single:
     ANOTHER:
     medium:
     5:
     0.315,0.351,0.121,0.020,0.000,205.000,12.000,2.000,0.000,0.000:



0000
0000
0000
0000
,
0000
0000
0000
0000
,
0000
0000
0000
0000
,
0000
0000
0000
0000
,
0000
0000
0000
0000
,
1000
0100
1000
0010
,
1000
0100
0001
0100
,
0001
0010
0100
0010
,
1000
0001
1000
1001
,
0010
1000
0100
0010
,
0100
1000
0001
0100
,
0010
1000
0100
1000
,
0001
1000
0010
0000
,
1000
0000
0100
0000
1000
0010
1000
0000
,
0001
0000
0100
0000
0010
0100
0010
0000
,
1000
0000
0100
0000
0010
0001
0010
0000
,
0001
0000
1000
0000
0100
0001
0100
0000
,
0010
0000
1000
0000
0001
0010
0001
0000
,
0001
0000
1000
0000
0100
0010
0001
0010
,
0100
0100
1000
0100
,
0001
0000
0100
0000
1000
0100
0001
0000
,
0110
0100
0001
1000
,
0100
0010
0001
0000
,
0100
1000
0010
0100
,
0000
0000
0010
0010
,
1000
0001
0010
0001
,
1000
0001
1000
0001
1000
0000
0000
0000
,
0001
1000
0100
0100
,
0010
0010
0001
1000
,
0001
1000
0100
0010
,
0001
1000
0010
0100
,
0010
1000
0001
0011
,
1100
0001
1000
0001
,
1001
0010
0100
0010
,
1000
0001
0100
0001
,
1000
0100
0010
0001
,
1000
0010
0100
0001
,
1001
0100
0100
1000
,
0001
0100
0010
0011
,
0011
0100
1000
0001
,
0010
0100
0110
1100
,
1100
0000
0010
0000
0100
0100
0001
0000
,
1000
0100
0010
0001
,
1000
0010
0100
0001
,
1000
0000
0100
0000
1000
0001
1000
0001
,
1000
0100
0010
0001
,
0100
0000
0010
0000
1000
0000
0010
1000
,
0010
0001
0010
1000
,
0100
1000
0001
0100
,
1000
0000
0100
0000
1000
0100
1000
0000
,
0010
0000
0001
0000
0010
0001
0010
0001
,
0010
0100
0010
0100
,
0010
1000
0001
1000
,
2002
0000
0000
3003;

//---------------dance-single - BASIC----------------
#NOTES:
     dance-single:
     BASIC:
     easy:
     3:
     0.182,0.270,0.131,0.020,0.000,112.000,13.000,2.000,0.000,0.000:



0000
0000
0000
0000
,
0000
0000
0000
0000
,
0000
0000
0000
0000
,
0000
0000
0000
0000
,
0000
0000
0000
0000
,
0110
0000
0001
0000
,
1000
0100
1000
0000
,
0001
0000
1000
0000
,
0010
0100
0001
0000
,
1000
0000
0001
0000
,
0010
0100
1000
0000
,
0001
0000
1000
0000
,
0001
0000
0100
0000
,
0110
0000
0001
1000
,
0101
0000
0010
0100
,
1100
0000
0001
1000
,
0110
0000
0001
0010
,
0011
0000
0000
0100
,
0100
0000
0000
0010
,
1010
0100
0000
0010
,
1001
0000
0100
0000
,
0010
0010
0001
0001
,
0010
0010
0001
0001
,
1000
1000
0100
0100
,
1000
1000
0100
0100
,
1000
1000
0001
0001
,
1000
1000
0001
0001
,
0010
0010
0100
0100
,
0010
0010
0100
0100
,
1000
0000
0000
0000
,
0011
0000
0000
0000
,
0100
0000
0000
0000
,
1001
0000
0000
0000
,
0010
0000
0000
0000
,
1010
0000
0000
0000
,
0101
0000
0000
0000
,
0101
0000
0000
0000
,
1000
0000
0100
0000
,
0010
0000
1000
0100
,
0010
0000
1000
0000
,
0001
0000
0010
0000
,
0010
0001
0100
0000
,
0001
0000
0001
0000
,
0001
0000
0100
0000
,
0001
0010
0001
0000
,
0100
0000
0001
0000
,
0100
0000
0001
0000
,
0100
0001
1000
0000
,
0100
0000
0000
0000
,
0002
0000
0000
0000
,
1000
0000
0000
0000
,
1000
0000
0000
0000
,
0010
0000
0000
0003
,
0200
0000
0000
0300;
